&title=コネクト
&wholebpm=175
&artist=ClariS 「魔法少女まどか☆マギカ」
&des=はっぴー
&shortid=10021
&genre=POPSアニメ
&cabinet=DX
&version=maimai DX PLUS
&chartconverter=Neskol
&lv_2=3
&des_2=
&lv_3=6
&des_3=
&lv_4=8+
&des_4=はっぴー
&lv_5=11
&des_5=はっぴー
&lv_6=12+
&des_6=チャン@DP皆伝
&inote_2=
(175){1},
{1},
{1}1,
{1}1,
{1}2,
{1}2,
{1}3,
{1}3,
{1}4h[1:1],
{1},
{2}5,5,
{1}5,
{2}6,6,
{1}6,
{2}7,7,
{1}7,
{1}8,
{1}1b/8b,
{1}7,
{1}7,
{1}6,
{1}6,
{2}5,5,
{1}5,
{1}4h[2:1],
{1}5h[2:1],
{1}4,
{1}4,
{1}3,
{1}3,
{2}2,2,
{1}2,
{1}1-5[4:3],
{1},
{1}B6,
{1}B7,
{1}B8,
{1}B1,
{1}B2,
{1}B3,
{1}4h[1:1]/5h[1:1],
{1},
{1}B6,
{1}B4/B5,
{1}B3,
{1}B4/B5,
{1}B3/B6,
{1}B2/B7,
{1}C1hf[1:1],
{1},
{2}1,1,
{4}2,2,2,,
{2}3,3,
{1}4/5,
{2}5,5,
{4}6,6,6,,
{1}7h[2:1],
{1}1x/8x,
{2}8,8,
{4}7,7,7x,,
{2}6,6,
{2}5,4/5,
{1}3h[2:1],
{1}2h[2:1],
{2}1,1,
{2}8,8,
{1}7-3[4:3],
{1},
{1}2-6[4:3],
{1},
{2}7,7,
{2}6,6,
{1}5h[1:1],
{2},5,
{1}4h[1:1],
{2},4,
{1}4b/5b,
{1},
{1},
{1},
E
&inote_3=
(175){1},
{1},
{1}3xh[1:1],
{1}4h[1:1],
{1}5h[1:1],
{1}6x,
{1}6h[1:1],
{1}5h[1:1],
{1}4h[1:1],
{1}3,
{4}2,2,1x/2x,,
{4}7,7,7x/8x,,
{4}7,7,8,8,
{4}1,1,2x/8x,,
{4}7,7,7x/8x,,
{4}2,2,1x/2x,,
{4}2,2,1,1,
{4}1/8,1/8,2x/7x,,
{2}3h[2:1],4,
{2}6h[2:1],5,
{4}3,3,3x/4x,,
{4}6,6,5x/6x,,
{2}6h[2:1],5,
{2}3h[2:1],4,
{4}6,6,5x/6x,,
{4}3,3,2x/4x,,
{2}2h[2:1],1,
{2}7h[2:1],8,
{4}2,2,1x/2x,,
{4}7,7,7x/8x,,
{2}7h[2:1],8,
{2}2h[2:1],1,
{4}7,7,7x/8x,,
{4}1/8,1/8,2x/7x,,
{2}E3,B3,
{1}B4,
{2}E7,B6,
{1}B5,
{2}B2,B1,
{2}B8,B7,
{2}B6,B5,
{1}C1,
{1}8<5[2:1],
{1}4>1[2:1],
{1}8-4[2:1],
{4}3,3,3x/4x,,
{1}1-6[2:1]/2-5[2:1],
{1}7-4[2:1]/8-3[2:1],
{1}C1hf[1:1],
{1},
{4}2,2,1/2,1/2,
{4}7,7,6x/8x,,
{4}7,7,7/8,7/8,
{4}2,2,1x/3x,,
{2}3h[2:1],4h[2:1],
{2}5h[2:1],6x,
{2}4/5,4-1[2:1]/5-8[2:1],
{2},2x/7x,
{4}7,7,7/8,7/8,
{4}2,2,1x/3x,,
{4}2,2,1/2,1/2,
{4}7,7,6x/8x,,
{4}6,6,7,7,
{4}8,8,1,1,
{4}1/8,1/8,2b/7b,,
{2}1,2,
{4}3,3,3x/4x,,
{4}6,6,5x/6x,,
{4}3,3,2,2,
{4}1,1,2x/8x,,
{4}7,7,7x/8x,,
{4}2,2,1x/2x,,
{4}7,7,8,8,
{4}1,1,2x/7x,,
{1}2-5[2:1],
{1}7-4[2:1],
{1}C1f,
{1},
{1},
{1},
E
&inote_4=
(175){1},
{4},,8,1,
{1}3<6[8:3],
{1}8-4[8:3],
{2}3h[2:3],4,
{1}6h[2:1],
{4}1,8,4/6,,
{1}3/4-8[8:3],
{1}2xh[2:3],
{4}7xh[2:1],,,4/5,
{8}3,,4/6,,7,7h[4:1],,5,
{8},8,8,,5/6,,4/7,,
{8}6,,3/5,,2,2h[4:1],,4,
{8},1,1,,3/4,,2/5,,
{8}3,,4/6,,7,7h[4:1],,5,
{8},8,8,,5/6,,4/7,,
{4}1/8,2/7,3/6,4/5,
{2}4/5,3/6,
{2}7h[1:1],5,
{4}3,5,4/6,,
{2}2h[1:1],4,
{4}6,4,3/5,,
{2}7h[1:1],5,
{4}3,5,4/6,7,
{2}2h[2:1],4h[2:1],
{2}5h[2:1],6,
{4}2,2h[4:3],4,,
{4}6,4,3/5,,
{4}7,7h[4:3],5,,
{4}3,5,4/6,,
{4}2,2h[4:3],4,,
{4}6,4,3/5,2,
{1}8<1[4:3],
{2},1/8,
{4}E1,E5,C1,B2/B7,
{4}E1,E5,C1,E2/E7,
{4}E1,E5,C1,E3/E8,
{4}1,2,3,4,
{2}5<8[4:1],4>1[4:1],
{2}8<5[4:1],1>4[4:1],
{2}8h[2:1],1>8[4:3],
{1},
{4}E1,E5,C1,B2/B7,
{4}E1,E5,C1,E3/E8,
{4}E1,E5,C1,E2/E7,
{4}8,7,6,5,
{4}4-1[4:1],,5,6,
{4}3/7,2/6,1V72[4:3]/5V36[4:3],,
{1},
{2}C1f/B3/B6,2b/7b,
{4}5/6h[4:1],2,5/7h[4:1],1,
{8}3/4,3/4,,2/6,,4/8,,7,
{4}7,3/5,2,1s5[2:1],
{8},,,,,8x,8x,,
{4}3h[4:1]/4,7,2h[4:1]/4,8,
{8}5/6,5/6,,3/7,,1/5,,2,
{4}2,4/5,3/6<3[2:1],,
{2},C1f,
{4}1/7h[4:1],3,2h[4:1]/8,6,
{8}1,1,,4b/7b,,2b/6b,,C1f/B4/B8,
{8},,,1,1,8,,6,
{8}5/6,,3,3/4,,7<2[8:3],,,
{4},,3h[4:1],1h[4:1],
{4}8h[4:1],6h[4:1],3,4>1[8:3]/5<8[8:3],
{1},
{2}7x-3[4:1],1x-5[4:1],
{1}8x<1[1:1],
{1},
{8}3,,4/6,,7,7h[4:1],,5,
{8},8,8,,7/8,,1/6,,
{8}5,,3/4,,2,2h[4:1],,4,
{8},1,1,,1/2,,3/8,,
{4}6,5/7,3,2/4,
{8}6,,5/7,,8,8,1/7,,
{4}3,2/4,6,5/7,
{8}3,,2/4,,1,1,8,,
{1}2b/7b,
{1},
{1},
{1},
E
&inote_5=
(175){1},
{4},,6,5-8[4:1],
{2}4,8,
{8}1,1,,2-6[4:1],,,,7h[8:5],
{2},5,
{4}5<8[4:1],4,,4-1[4:1],
{2}6,1,
{8}8,8,,7-3[4:1],,1>7[2:1],,,
{8},,,,,8x,8x,1xh[8:5],
{2},C1f,
{8}2h[2:1]/6,,4,,7,7h[4:1],,5,
{8},3/5,,1,1,,4/6,,
{8}3/7h[2:1],,5,,2,2h[4:1],,4,
{8},4/6,,8,8,,3/5,,
{8}2h[2:1]/6,,4,,7,7h[4:1],,5,
{8},3/5,,1,1,,4>6[4:3]/6,,
{4}5,5,5,5,
{4}1/8,,3/6,4/5,
{8}6,,7h[4:1],,5,5,,1,
{8}1h[4:1],,8,8,,5/7,,3h[4:1]/5h[4:1],
{8},,4>1[8:1]/6,,5,5<8[8:1],,1,
{8}1h[8:3],,,3h[8:3],,,4,,
{8}8<5[8:1],,1h[4:1],,3,3,,8h[4:1],
{8},2h[4:1],,3h[4:1],,4h[4:1],,5,
{2}4>1[8:1]/5,5<8[8:1],
{2}1>4[8:1],8<5[8:1],
{8}3,,2h[4:1],,4,4,,8,
{8}8h[4:1],,1,1,,2/4,,4h[4:1]/6h[4:1],
{8},,3/5<8[8:1],,4,4>1[8:1],,8,
{8}8h[8:3],,,1,,2/7,,8,
{8}8<5[8:1],,1h[4:1],,3,3,,8h[4:1],
{8},2,2h[4:1],,4h[4:1],,5h[4:1],,
{8}7h[4:1],,8,8h[4:1],,1,1>6[2:1],,
{4},,,3/8x-5[8:1],
{4}3,3/5x-1[8:1],3,1x-6[8:1]/3,
{4}3,3/6x-2[8:1],3,2x-7[8:1]/3,
{4}3,3/7x-4[8:1],3,3/4x-8[8:1],
{4}3,3/8x,3/7x,3x-8[8:1]/6,
{4}6,6/8x-4[8:1],6,4x-1[8:1]/6,
{4}6,1x-5[8:1]/6,6,5x-8[8:1]/6,
{4}6,6/8x-4[8:1],6,4x-1[8:1]/6,
{4}6,1x/6,1x/6,1>6[2:1]/6,
{8}8,,8,,8h[4:1],,1,1,
{4}7,5/6,4,3/8<3[2:1],
{8}1,,1,,1h[4:1],,8,8,
{4}2,3/5,6,7-4[4:1]/8-3[4:1],
{4},,3x/4x,1-6[4:1]/2-5[4:1],
{4},,5/6,1V73[4:3]/8V26[4:3],
{1},
{2}C1f/B2/B7,8b,
{8}2-5[8:1]/5,,7,7,6,5,,2,
{8}2,1,,7-4[8:1]/8-3[8:1],,,,2,
{8}2h[4:1],,4,4,3,2/5,,7,
{8}7-3[8:1],2-6[8:1],,,,8,8,,
{8}4/7-4[8:1],,2,2,3,4,,7,
{8}7,8,,4/6,,3qq5[8:5]/5,,7h[8:5],
{8},,,,,5x/6x,4x/7x,3x/8xh[8:3],
{4},1b,2/4-7[8:1],3-8[8:1],
{8}6h[8:3],,,5,5,7,,3,
{8}4,5h[4:3],,1b,,6b,,C1f,
{8},,,8,1,2/6,,8,
{8}8,1-5[8:1],1,7-3[8:1],,4-1[8:1],,8b,
{4},,7h[4:1],5h[4:1],
{8}4h[4:1],,1,1,,2pp5[8:5]/7qq4[8:5],,,
{4},,,7,
{2}7x-3[8:1],1x-5[8:1],
{1}5x-2[4:5]/6x-1[4:5],
{1},
{8}1h[4:1],,8,,6,5/7>2[8:1],,3h[8:3],
{8},,4,,4/6,,8,1,
{8}2h[4:1],,1,,3,2<7[8:1]/4,,6h[8:3],
{4},5,3/5,2/6,
{8}1>4[8:1],,6,6<1[8:1],,3,3<6[8:1],,
{4}7,8h[4:1],2,3/7,
{2}8x-4[8:1],4x-7[8:1],
{2}7x-2[8:1],2x-5[8:1],
{1}5x-1[4:5],
{1},
{1},
{1},
E
&inote_6=
(175){1},
{8},,,,1,1,8-5[2:1],8,
{8}2,,,2,1,2,,6-3[2:1],
{8}6,3,,E8,,E2,,4-1[8:3],
{8},,,5,5,6,,2-7[8:3],
{8}2,1,1,8,,8,8-4[2:1],1,
{8}1,,,2,1,8,,5-1[8:3],
{8}5,4,,3,,2,,C1hf[1:1],
{1},
{16},,,,,,,,,,,,4/8,3/7,2/6,1/5,
{8}4x-7[8:1]/8x-3[8:1],,4/8,,2,1/2-5[8:1],,7,
{8},7-4[8:1],,2,1,,C1,,
{8}4-1[8:1]/8-5[8:1],,4/8,,8,7-3[8:1]/8,,1h[8:5],
{16},,,,,,,,,,,,1/5,2/6,3/7,4/8,
{8}1x-6[8:1]/5x-2[8:1],,1/5,,7,7-4[8:1]/8,,2,
{8},2-5[8:1],,7,8,,C1,,
{8}1-4[8:1]/5-8[8:1],,1/5,,1w5[8:1],2,1,,
{2}3h[4:1]/7h[4:1],2h[4:1]/6h[4:1],
{8}1x/2x,,2>5[8:1],,2,8,,7,
{8}7<4[8:1],,7,1,,2z6[8:3],,2,
{8},,8,,4V27[2:1]/8,8,,C1xh[8:3],
{8},,,,,1,8-3[8:1],7,
{8}6,,5,4-7[8:1],3,2,,3p7[8:1],
{8},4,5,6,,1,,6,
{4}7x<4[8:1]/8x>3[8:1],7/8,5x>2[8:1]/6x<1[8:1],5/6,
{16}1x>4[8:1]/8x<5[8:1],,,,1/8,,,,4x-8[8:1]/5x-1[8:1],,,,4/5,C1f,,,
{8},,7<4[8:1],,7,1,,2,
{8}2>5[8:1],,2,8,,7s3[8:3],,7,
{8},,1,,1/5V72[2:1],1,,C1xh[8:3],
{8},,,,,8-4[8:1],1-5[8:1],8,
{8}1,,6-2[8:1],,6,4-8[8:1],,4,
{8},1/7h[2:1],2,1,2,,1xq5[8:1]/5x,,
{32}5x,6,7,8,1xp5[8:1],,,,,,,,5x,4,3,2,1xw5[8:1],,,,,,,,1,,C1f,,,,,,
{8},,,,,,8,8,
{4}4/8-5[8:1],B3,4/5-1[8:1],B2,
{4}1-6[8:1]/3,B4,2/6-2[8:1],B4,
{4}2-7[8:1]/3,B3,3/7-4[8:1],B2,
{8}3/4-1[8:1],,E3,,1-6[8:1]/2,,B4,3,
{4}3-8[8:1]/6,B6,7/8-4[8:1],B6,
{4}4-1[8:1]/8,B7,1-5[8:1]/6,E8,
{4}5-8[8:1]/8,E7,5/8-3[8:1],B7,
{8}3-7[8:1]/5,,B5,,6/7-2[8:1],,5,5,
{8}5>1[4:1],,1<5[4:1],,5>1[4:1],,1s5[4:1]*z5[4:1],1,
{4},,3<6[4:1],6p1[4:1],
{8}1>4[4:1],,,8,,,5-2[8:1]/6-1[8:1],5/6,
{32},,,,,,,,,,,,,,,,1>4[32:3],,,,,,,,1,8,7,6,5,,,,
{32}8<5[32:3],,,,,,,,8,1,2,3,4,,,,,,,,1w5[8:1],,,,,,,,1,,,,
{32},,,,,,,,1/5,,,,2/6,,,,,,,,2-7[8:7]/6-3[8:7],3/7,4/8,1/5,,,,,,,,,
{32},,,,,,,,,,,,,,,,,,,,,,,,,,,,E3/E7,B2/B6,C1f,B1/B5,
{8}E1/E5,,,,8>3[8:1],7<4[8:1],8,7,
{8}1-5[8:1],,,7p3[8:1],8,1/7,,1,
{8}8,6-1[8:1],,6-2[8:1],,6,,4>7[4:1],
{8},,,4q8[8:1],4,4,,7,
{8}1>4[8:1],8<5[8:1],1,8,,1V75[8:1]/2V86[8:1],5V31[8:1]/6V42[8:1],,
{8},,,5-2[8:1]/6-1[8:1],5/6,,,8,
{8}1,8>4[4:1],,4<8[4:1],,8z4[8:3],,2h[8:3],
{8},,,,,5qq2[8:3]/6pp1[8:3],4/7,,
{8},,,,8-4[8:1],1-5[8:1],8,1,
{8}8q6[4:1],,,2,2,3,,B6,
{8}B2,C1hf[4:3],,1b,,6b,,3b,
{8},,,6,5,4,,3,
{8}2,1-3[8:1]*-4[8:1],1,1-6[8:1]*-7[8:1],,1w5[8:1],,1,
{4},,8<4[4:1],8>4[4:1],
{8}8z4[4:1],,8,3>8[8:1],,3,,6h[8:5],
{4},,,1<6[8:1]/2>5[8:1],
{4},7<4[8:1]/8>3[8:1],,5-2[1:1]/6-1[1:1],
{1},
{1},
{8}4-1[8:1]/8-5[8:1],,4/8,,2,1/2-6[8:1],,5h[8:5],
{16},,,,,,,,,,,,1/5,2/6,3/7,4/8,
{8}1x-6[8:1]/5x-2[8:1],,1/5,,7,7-4[8:1]/8,,2/7,
{8},2-5[8:1],,2/7,8,,C1,,
{32}3/7,2/6,1h[8:1]/5h[8:1],,,,,,,,,,2/6,3/7,4h[8:1]/8h[8:1],,,,,,,,,,2/6,1/5,4h[16:7]/8h[16:7],,,,,,
{8},,,,4/8,1/5,2/6,3/7,
{4}4h[4:3]/8,,,8-4[4:1],
{4}4-7[4:1],7-2[4:1],2-5[4:1],5-1[1:1],
{1}C1hf[1:3],
{1},
{1},
{1},
{1},
{1},
E
